Torrent Details

Baywatch 2017 MULTi 1080p BluRay x264<font color=#ccc>-VENUE</font>
Baywatch 2017 MULTi 1080p BluRay x264-VENUE
Size8.7 GB in 2 files
ReleasesAdded on 19.08.2017 at 3:56 into the Movies category by Unknown.
Status0 seeds & 0 peers.
Hashfe8310dbbe13bbf99d5c68606166d108885db15b
Rating
  • YourBT Visitors

Status This torrent has been verified.
*

Torrent Description

Baywatch.2017.MULTi.1080p.BluRay.x264-VENUE

ImDb: http://www.imdb.com/title/tt1469304



Complete name : Baywatch.2017.MULTi.1080p.BluRay.x264-VENUE.mkv
Format : Matroska
Format version : Version 4 / Version 2
File size : 8.74 GiB
Duration : 2 h 1 min
Overall bit rate : 10.3 Mb/s
Encoded date : UTC 2017-08-18 22:05:33
Writing application : mkvmerge v8.3.0 ('Over the Horizon') 64bit
Writing library : libebml v1.3.1 + libmatroska v1.4.2

Video
ID : 1
Format : AVC
Format/Info : Advanced Video Codec
Format profile : [email protected]/* */
Format settings, CABAC : Yes
Format settings, ReFrames : 5 frames
Codec ID : V_MPEG4/ISO/AVC
Duration : 2 h 1 min
Bit rate : 9 035 kb/s
Width : 1 920 pixels
Height : 808 pixels
Display aspect ratio : 2.40:1
Frame rate mode : Constant
Frame rate : 23.976 FPS
Color space : YUV
Chroma subsampling : 4:2:0
Bit depth : 8 bits
Scan type : Progressive
Bits/(Pixel*Frame) : 0.243
Stream size : 7.66 GiB (88%)
Writing library : x264 core 152 r2851 ba24899
Encoding settings : cabac=1 / ref=5 / deblock=1:0:0 / analyse=0x3:0x133 / me=umh / subme=7 / psy=1 / psy_rd=1.00:0.00 / mixed_ref=1 / me_range=16 / chroma_me=1 / trellis=1 / 8x8dct=1 / cqm=0 / deadzone=21,11 / fast_pskip=0 / chroma_qp_offset=-2 / threads=12 / lookahead_threads=2 / sliced_threads=0 / nr=0 / decimate=1 / interlaced=0 / bluray_compat=0 / constrained_intra=0 / bframes=3 / b_pyramid=2 / b_adapt=1 / b_bias=0 / direct=1 / weightb=1 / open_gop=0 / weightp=2 / keyint=250 / keyint_min=23 / scenecut=40 / intra_refresh=0 / rc_lookahead=40 / rc=2pass / mbtree=1 / bitrate=9035 / ratetol=1.0 / qcomp=0.60 / qpmin=0 / qpmax=69 / qpstep=4 / cplxblur=20.0 / qblur=0.5 / ip_ratio=1.40 / aq=1:1.00
Language : English
Default : Yes
Forced : No

Audio #1
ID : 2
Format : AC-3
Format/Info : Audio Coding 3
Format settings, Endianness : Big
Codec ID : A_AC3
Duration : 2 h 1 min
Bit rate mode : Constant
Bit rate : 640 kb/s
Channel(s) : 6 channels
Channel positions : Front: L C R, Side: L R, LFE
Sampling rate : 48.0 kHz
Frame rate : 31.250 FPS (1536 spf)
Bit depth : 16 bits
Compression mode : Lossy
Stream size : 556 MiB (6%)
Language : French
Service kind : Complete Main
Default : Yes
Forced : Yes

Audio #2
ID : 3
Format : AC-3
Format/Info : Audio Coding 3
Format settings, Endianness : Big
Codec ID : A_AC3
Duration : 2 h 1 min
Bit rate mode : Constant
Bit rate : 640 kb/s
Channel(s) : 6 channels
Channel positions : Front: L C R, Side: L R, LFE
Sampling rate : 48.0 kHz
Frame rate : 31.250 FPS (1536 spf)
Bit depth : 16 bits
Compression mode : Lossy
Stream size : 556 MiB (6%)
Language : English
Service kind : Complete Main
Default : No
Forced : No

Text #1
ID : 4
Format : UTF-8
Codec ID : S_TEXT/UTF8
Codec ID/Info : UTF-8 Plain Text
Duration : 1 h 55 min
Bit rate : 82 b/s
Count of elements : 2278
Stream size : 69.5 KiB (0%)
Language : French
Default : No
Forced : No

Text #2
ID : 5
Format : UTF-8
Codec ID : S_TEXT/UTF8
Codec ID/Info : UTF-8 Plain Text
Duration : 37 min 11 s
Bit rate : 1 b/s
Count of elements : 12
Stream size : 356 Bytes (0%)
Title : Forced
Language : French
Default : Yes
Forced : Yes

Menu
00:00:00.000 : en:00:00:00.000
00:08:55.535 : en:00:08:55.535
00:16:54.347 : en:00:16:54.347
00:21:01.802 : en:00:21:01.802
00:29:40.946 : en:00:29:40.946
00:38:03.615 : en:00:38:03.615
00:44:55.067 : en:00:44:55.067
00:50:33.447 : en:00:50:33.447
01:01:29.936 : en:01:01:29.936
01:11:48.804 : en:01:11:48.804
01:19:44.655 : en:01:19:44.655
01:29:00.794 : en:01:29:00.794
01:35:23.176 : en:01:35:23.176
01:44:31.640 : en:01:44:31.640
01:50:07.267 : en:01:50:07.267
01:54:52.427 : en:01:54:52.427





Similar Torrents

TORRENT NAMESIZESEEDSPEERS
8.7 GB00
8.7 GB00
3 GB63
2.3 GB53
960 MB23
14.4 GB00
9.9 GB00
12.5 GB00
11.4 GB00
14.1 GB00
11.8 GB00
10.2 GB00
14 GB00
8 GB00

Torrent Trackers

Files inside this torrent

FILENAMESIZE
icon Baywatch.2017.MULTi.1080p.BluRay.x264-VENUE.mkv8.7 GB
icon baywatch.2017.multi.1080p.bluray.x264-venue.nfo231 B