Torrent Details

Guardians of the Galaxy Vol 2 HOU BDRip(60FPS)Sonda
Guardians of the Galaxy Vol 2 HOU BDRip(60FPS)Sonda
Size28.7 GB in 2 files
ReleasesAdded on 01.01.1970 at 15:39 into the Movies category by Unknown.
Status0 seeds & 0 peers.
Hashb6ee9ba555e74489504f4cca10b18aecfebf4dfc
Rating
  • YourBT Visitors

Status This torrent has been verified.
*

Torrent Description



Strażnicy Galaktyki vol. 2 3D - Guardians of the Galaxy Vol. 2 *2017* FullScreen.HOU.1080p.60FPS.Sonda ==============================

Film w wersji 3D Over-Under.
Do odtworzenia filmu WYMAGANY odpowiedni sprzęt (TV 3D)
==========================================
UWAGA: Po prawej i lewej stronie obraz został wycięty do 248p,
co umożliwia wyświetlanie na telewizorze pełnoekranowego obrazu
(bez czarnych pasów) w formacie (16:9) bez zmiany proporcji.
Taki zabieg moim zdaniem poprawia dużo bardziej efekt 3D.
Jedyną wadą jest przycięcie obrazu po obu bokach ekranu,
no ale niestety coÅ› za coÅ›:)
Wszystkich chętnych zapraszam do przetestowania !!!!! =====

gatunek: Akcja,Sci-Fi
produkcja: USA
premiera: 5 maja 2017 (Polska) 19 kwietnia 2017 (świat)
reżyseria: James Gunn
scenariusz: James Gunn

http://www.imdb.com/title/tt3896198/

Obsada:

Paweł Małaszyński ... Peter Quill / Star-Lord (polski dubbing)
Paulina Holtz ... Gamora (polski dubbing)
Artur Dziurman ... Drax (polski dubbing)
Robert Jarociński ... Mały Groot (polski dubbing)
Jacek Braciak ... Rocket (polski dubbing)
Paweł Wawrzecki ... Yondu Udonta (polski dubbing)
Julia Kijowska ... Nebula (polski dubbing)
Aleksandra Radwan ...Mantis (polski dubbing)
SÅ‚awomir Orzechowski ... Stakar Ogord (polski dubbing)

Opis:

Grupa najbardziej niesubordynowanych outsiderów w galaktyce penetruje odległe zakątki kosmosu, próbując rozwikłać zagadkę pochodzenia jednego z jej członków - Petera Quilla aka Star Lorda. Niegdysiejsi wrogowie staną się ich sprzymierzeńcami, a w nieustannie powiększającym się filmowym uniwersum Marvela zagoszczą nowe postacie znane z kart komiksu.

Storyline:

After saving Xandar from Ronan's wrath, the Guardians are now recognized as heroes. Now the team must help their leader Star Lord (Chris Pratt) uncover the truth behind his true heritage. Along the way, old foes turn to allies and betrayal is blooming. And the Guardians find that they are up against a devastating new menace who is out to rule the galaxy.

Screenshot:







Dane techniczne:

General
Format : Matroska
Format version : Version 2
File size : 28.7 GiB
Duration : 2 h 15 min
Overall bit rate : 30.2 Mb/s
Movie name : Guardians.of.the.Galaxy.Vol.2.2017.PL.HOU.BDRip.1080p.60FPS.60FPS.Sonda
Encoded date : UTC 2017-09-21 04:43:34
Writing application : mkvmerge v5.7.0 ('The Whirlwind') built on Jul 8 2012 20:08:51
Writing library : libebml v1.2.3 + libmatroska v1.3.0

Video
ID : 1
Format : AVC
Format/Info : Advanced Video Codec
Format profile : [email protected]
Format settings, CABAC : Yes
Format settings, ReFrames : 4 frames
Codec ID : V_MPEG4/ISO/AVC
Duration : 2 h 15 min
Nominal bit rate : 24.0 Mb/s
Width : 1 920 pixels
Height : 1 080 pixels
Display aspect ratio : 16:9
Frame rate mode : Constant
Frame rate : 59.940 (60000/1001) FPS
Color space : YUV
Chroma subsampling : 4:2:0
Bit depth : 8 bits
Scan type : Progressive
Bits/(Pixel*Frame) : 0.193
Title : 60FPS FullScreen Rip by Sonda
Writing library : x264 core 148 r2744 b97ae06
Encoding settings : cabac=1 / ref=4 / deblock=1:-1:-1 / rc=abr
Default : Yes
Forced : No
Color range : Limited
Color primaries : BT.709
Transfer characteristics : BT.709
Matrix coefficients : BT.709

Audio #1
ID : 2
Format : AC-3
Format/Info : Audio Coding 3
Format settings, Endianness : Big
Codec ID : A_AC3
Duration : 2 h 15 min
Bit rate mode : Constant
Bit rate : 640 kb/s
Channel(s) : 6 channels
Channel positions : Front: L C R, Side: L R, LFE
Sampling rate : 48.0 kHz
Frame rate : 31.250 FPS (1536 spf)
Bit depth : 16 bits
Compression mode : Lossy
Stream size : 622 MiB (2%)
Title : AC3 5.1 Dubbing PL z Bluray
Language : Polish
Service kind : Complete Main
Default : Yes
Forced : Yes

Audio #2
ID : 3
Format : AC-3
Format/Info : Audio Coding 3
Format settings, Endianness : Big
Codec ID : A_AC3
Duration : 2 h 15 min
Bit rate mode : Constant
Bit rate : 640 kb/s
Channel(s) : 6 channels
Channel positions : Front: L C R, Side: L R, LFE
Sampling rate : 48.0 kHz
Frame rate : 31.250 FPS (1536 spf)
Bit depth : 16 bits
Compression mode : Lossy
Stream size : 622 MiB (2%)
Title : AC3 5.1 ENG
Language : English
Service kind : Complete Main
Default : No
Forced : No

Audio #3
ID : 4
Format : DTS
Format/Info : Digital Theater Systems
Format profile : MA / Core
Mode : 16
Format settings, Endianness : Big
Codec ID : A_DTS
Duration : 2 h 15 min
Bit rate mode : Variable / Constant
Bit rate : 4842 / 1 509 kb/s
Channel(s) : 8 channels / 6 channels
Channel positions : Front: L C R, Side: L R, Back: L R, LFE / Front: L C R, Side: L R, LFE
Sampling rate : 48.0 kHz
Frame rate : 93.750 FPS (512 spf)
Bit depth : 24 bits
Compression mode : Lossless / Lossy
Title : DTS-HD MA 7.1 ENG
Language : English
Default : No
Forced : No

Text #1
ID : 5
Format : UTF-8
Codec ID : S_TEXT/UTF8
Codec ID/Info : UTF-8 Plain Text
Title : napisy PL 2D
Language : Polish
Default : No
Forced : No

Text #2
ID : 6
Format : UTF-8
Codec ID : S_TEXT/UTF8
Codec ID/Info : UTF-8 Plain Text
Title : napisy ENG 2D
Language : English
Default : No
Forced : No

Text #3
ID : 7
Format : PGS
Muxing mode : zlib
Codec ID : S_HDMV/PGS
Codec ID/Info : Picture based subtitle format used on BDs/HD-DVDs
Title : napisy PL 3D
Language : Polish
Default : No
Forced : No

Text #4
ID : 8
Format : PGS
Muxing mode : zlib
Codec ID : S_HDMV/PGS
Codec ID/Info : Picture based subtitle format used on BDs/HD-DVDs
Title : napisy ENG 3D
Language : English
Default : No
Forced : No

Source:
A/V- BDRemux 2D/3D
Dubbing PL - BD
Thanks - Sonda



Similar Torrents

TORRENT NAMESIZESEEDSPEERS
950 MB00
950 MB00
950 MB00
950 MB00
950 MB00
950 MB00
102 MB00
713 MB00
713 MB00
708 MB00
652 MB00
708 MB00
713 MB00
2.1 GB00

Torrent Trackers

Files inside this torrent

FILENAMESIZE
icon G.o.t.G.Vol.2.60FPS.jpg330 KB
icon Guardians.of.the.Galaxy.Vol.2.2017.PL.HOU.BDRip.1080p.60FPS.Sonda.mkv28.7 GB